Skip to main content

Mike Cooley Live at The High Watt on 2013-02-09




Mike Cooley
2013-02-09
The High Watt
Nashville, TN.


***16bit Source***


Source: SBD + Schoeps MK4V > KC5 > CMC6 > Sound Devices 744T (24bit/48kHz)
Location: FOB / SLOC / AB / 8ft
Transfer: 744T > HDD > Wavelab 6.1 (DSP/Crystal Re-Sampler/MBit+ Dither/Fades) > CDWave > TLH > FLAC (8)
Taped, Transferred & Seeded by Martin Medley


One Set:

01. Intro
02. Perfect Timing
03. Gravity's Gone
04. Get Downtown
05. Space City
06. 3 Dimes Down >
07. Little Willy
08. 72 (This Highway's Mean)
09. When The Pin Hits The Shell
10. Where the Devil Don't Stay
11. A Ghost to Most
12. Eyes Like Glue
13. Panties In Your Purse
14. Drinking Coke & Eating Ice
15. Zip City
16. Loaded Gun In The Closet
17. Cottonseed
18. Birthday Boy
19. Pulaski
20. Self-Destructive Zones
21. Marry Me
22. Guitar Man Upstairs
23. Carl Perkins' Cadillac
24. Women Without Whiskey
25. Love Like This
26. Shut Up And Get On The Plane

Encore:

27. Uncle Frank
28. Everybody Needs Love


Collection MikeCooley
Band/Artist Mike Cooley
Date February 9, 2013
Venue The High Watt
Location Nashville, TN

Source SBD + Schoeps MK4V > KC5 > CMC6 > Sound Devices 744T (24bit/48kHz)
Lineage 744T > HDD > Wavelab 6.1 (DSP/Crystal Re-Sampler/MBit+ Dither/Fades) > CDWave > TLH > FLAC (8)
Taped by Martin Medley
Transferred by Martin Medley


Notes

shntool info:

length expanded size cdr WAVE problems fmt ratio filename
0:42.35 7491164 B --- -- ---xx flac 0.3798 cooley2013-02-09t01.flac
2:41.17 28440428 B --- -- ---xx flac 0.4100 cooley2013-02-09t02.flac
4:45.67 50431628 B --- -- ---xx flac 0.4172 cooley2013-02-09t03.flac
2:58.00 31399244 B --- -- ---xx flac 0.4800 cooley2013-02-09t04.flac
6:04.72 64378988 B --- -- ---xx flac 0.3951 cooley2013-02-09t05.flac
2:01.42 21443228 B --- -- ---xx flac 0.4826 cooley2013-02-09t06.flac
3:07.24 33043292 B --- -- ---xx flac 0.4703 cooley2013-02-09t07.flac
4:31.34 47884412 B --- -- ---xx flac 0.4675 cooley2013-02-09t08.flac
4:01.55 42641804 B --- -- ---xx flac 0.4358 cooley2013-02-09t09.flac
4:04.57 43175708 B --- -- ---xx flac 0.4717 cooley2013-02-09t10.flac
4:07.39 43662572 B --- -- ---xx flac 0.4631 cooley2013-02-09t11.flac
3:33.01 37575596 B --- -- ---xx flac 0.4348 cooley2013-02-09t12.flac
3:32.01 37399196 B --- -- ---xx flac 0.4659 cooley2013-02-09t13.flac
3:31.32 37295708 B --- -- ---xx flac 0.5059 cooley2013-02-09t14.flac
4:53.40 51779324 B --- -- ---xx flac 0.5361 cooley2013-02-09t15.flac
6:01.57 63814508 B --- -- ---xx flac 0.4470 cooley2013-02-09t16.flac
6:01.72 63849788 B --- -- ---xx flac 0.4854 cooley2013-02-09t17.flac
5:10.07 54700508 B --- -- ---xx flac 0.4558 cooley2013-02-09t18.flac
4:27.23 47152940 B --- -- ---xx flac 0.4642 cooley2013-02-09t19.flac
4:03.08 42884060 B --- -- ---xx flac 0.4619 cooley2013-02-09t20.flac
5:02.31 53345756 B --- -- ---xx flac 0.4557 cooley2013-02-09t21.flac
5:30.36 58296716 B --- -- ---xx flac 0.4761 cooley2013-02-09t22.flac
4:54.72 52030988 B --- -- ---xx flac 0.4892 cooley2013-02-09t23.flac
5:48.41 61483676 B --- -- ---xx flac 0.4722 cooley2013-02-09t24.flac
5:42.42 60427628 B --- -- ---xx flac 0.4552 cooley2013-02-09t25.flac
6:43.01 71091596 B --- -- ---xx flac 0.5034 cooley2013-02-09t26.flac
5:06.56 54110156 B --- -- ---xx flac 0.4992 cooley2013-02-09t27.flac
4:29.21 47501036 B --- -- ---xx flac 0.4792 cooley2013-02-09t28.flac
123:39.08 1308731648 B 0.4658 (28 files)

Reviews

Reviewer: tofutti - - February 22, 2013
Subject: Thanks
Great sounding recording of a very good show. Thanks so much for posting it.
DOWNLOAD OPTIONS
In Collection
Mike Cooley
In Collection
Live Music Archive
Uploaded by
mmedley
on 2/10/2013
Views
558
Favorites
1
Reviews
1
PEOPLE ALSO FOUND
Mike Cooley
by Mike Cooley
785
0
0
Source: SBD > Sound Devices 788 (24bit/48kHz)
Mike Cooley
by Mike Cooley
725
0
0
Source: Studer SKS 501U > Audient Mico > Microtracker (16bit/48kHz)
Mike Cooley
by Mike Cooley
857
0
2
( 2 reviews )
Source: SBD + Schoeps MK4V > KC5 > CMC6 > Sound Devices 744T (24bit/48kHz)
Mike Cooley
by Mike Cooley
578
0
0
Source: SBD > Sound Devices 722 (24bit/48kHz)
Mike Cooley
by Mike Cooley
558
1
1
( 1 reviews )
Source: SBD + Schoeps MK4V > KC5 > CMC6 > Sound Devices 744T (24bit/48kHz)
Stockholm Syndrome
by Stockholm Syndrome
101
1
0
Source: Audix m1290 > Lunatec V3 > JB3
North Mississippi Allstars
by North Mississippi Allstars
145
0
0
Source: Schoeps MK4V > KC5 > CMC6 > Sound Devices 722 (24bit/48kHz)
Stockholm Syndrome
by Stockholm Syndrome
97
0
0
Source: Neumann KM-184 (DIN) > Lunatec V2 > Sony SBM-1
Outformation
by Outformation
445
0
2
( 2 reviews )
Source: Schoeps MK4V (ORTF) > KC5 > CMC6 > Sound Devices 722 (24bit/48kHz)
Outformation
by Outformation
182
1
0
Source: Schoeps MK22 (NOS) > KC5 > M222 > NT222 + SBD (Midas Verona 480) > 744t (24/48)